群星-2013年第20届北京国际音响展览会2CD[WAV分轨]

2021-08-25 20:12:24  阅读 469 次 评论 0 条

群星-2013年第20届北京国际音响展览会2CD[WAV分轨]

群星-2013年第20届北京国际音响展览会2CD[WAV分轨]

群星-2013年第20届北京国际音响展览会2CD[WAV分轨]

群星-2013年第20届北京国际音响展览会2CD[WAV分轨]

群星-2013年第20届北京国际音响展览会2CD[WAV分轨]

群星-2013年第20届北京国际音响展览会2CD[WAV分轨]


群星 -20届北京国际音响大展CD1
曲目:
卡尔.奥尔夫《布兰诗歌》(选段).wav       27.18 MB
合唱:俄罗斯民歌《周围只是大草原》.wav       57.18 MB
合唱:俄罗斯民歌《阿穆尔河的波浪》.wav       39.32 MB
柴科夫斯基《D大调小提琴协奏曲》(第三乐章).wav       102.26 MB
民乐合奏《丰收锣鼓》.wav       64.50MB
民族歌剧《霸王别姬》选段.wav       50.23 MB
约翰.斯特劳斯歌剧《蝙蝠》选曲“当我扮演天真的乡下姑娘”.wav       45.84MB
莱哈尔歌剧《微笑国王》选段“你是我的唯一”.wav       37.26 MB
评剧:《刘巧儿》(选段).wav       44.70 MB
里姆斯基.萨科夫交响组曲《天方夜潭》(第一乐章).wav       112.55MB


群星 -20届北京国际音响大展CD2

REM DATE 2013
REM COMMENT 随缘
PERFORMER "群星"
TITLE"20届北京国际音响大展CD2"
FILE "群星 - 20届北京国际音响大展CD2.wav"WAVE
TRACK 01 AUDIO
  TITLE "锣声若响"
  PERFORMER "台北市民交响乐团"
  INDEX 01 00:00:00
TRACK 02 AUDIO
  TITLE "青蚵嫂"
  PERFORMER "台湾民谣 大提琴"
  INDEX 01 06:00:03
TRACK 03 AUDIO
  TITLE "II Signor Bruschino -Rossini"
  PERFORMER "群星"
  INDEX 01 09:28:06
TRACK 04 AUDIO
  TITLE "EI Preso Numero Nueve - JoanBaez"
  PERFORMER "群星"
  INDEX 01 14:08:36
TRACK 05 AUDIO
  TITLE "Teddy Bear - MightyEchoes"
  PERFORMER "群星"
  INDEX 01 17:25:12
TRACK 06 AUDIO
  TITLE "Sweeter Then The Dream - KimberlyFrank"
  PERFORMER "群星"
  INDEX 01 19:28:55
TRACK 07 AUDIO
  TITLE "Infight-Jurek Lamorski"
  PERFORMER "群星"
  INDEX 01 23:17:51
TRACK 08 AUDIO
  TITLE "Poule d'Eau-Jean-PierreMas"
  PERFORMER "群星"
  INDEX 01 27:52:00
TRACK 09 AUDIO
  TITLE "Ne me quitte pas-JohanneBlouin"
  PERFORMER "群星"
  INDEX 01 33:25:12
TRACK 10 AUDIO
  TITLE "The Very Thought Of You-Nat KingCole"
  PERFORMER "群星"
  INDEX 01 37:45:30
TRACK 11 AUDIO
  TITLE "Tenderly -Ella &Louis"
  PERFORMER "群星"
  INDEX 01 41:44:14
TRACK 12 AUDIO
  TITLE "Tiers-Roby Lakatos"
  PERFORMER "群星"
  INDEX 01 46:57:00
TRACK 13 AUDIO
  TITLE "Ashitaka And San-ElkoYAMASHITA"
  PERFORMER "群星"
  INDEX 01 53:03:51
TRACK 14 AUDIO
  TITLE "雨后的彩虹"
  PERFORMER "台湾金奖美声天后 许景淳"
  INDEX 01 57:46:58
TRACK 15 AUDIO
  TITLE "晚霞"
  PERFORMER "瑭瑭"
  INDEX 01 62:38:52
TRACK 16 AUDIO
  TITLE "为爱勇往"
  PERFORMER "林俊吉"
  INDEX 01 66:46:26

下载地址:

付费资源

资源内容:******,付费资源

此资源,你需要购买以后才能查看

你需要注册本站登录本站后通过购买才能查看

本文地址:https://www.oenx.cn/post/23289.html
温馨提示:文章内容系作者个人观点,不代表极致HiFi对观点赞同或支持。
版权声明:本文为转载文章,来源于 hifi ,版权归原作者所有,欢迎分享本文,转载请保留出处!

发表评论 取消回复


表情

还没有留言,还不快点抢沙发?