龙飘飘1993-龙腔雅韵珍藏经典4[百代唱片][WAV整轨]

2021-05-09 08:58:44  阅读 212 次 评论 0 条

龙飘飘1993-龙腔雅韵珍藏经典4[百代唱片][WAV整轨]

龙飘飘1993-龙腔雅韵珍藏经典4[百代唱片][WAV整轨]


REMGENRE POP
REM DATE1993
PERFORMER"龙飘飘"
TITLE"龙腔雅韵珍藏经典 4"
FILE"龙飘飘.-.[龙腔雅韵珍藏经典4](1993)[WAV].wav" WAVE
  TRACK01 AUDIO
   TITLE "通通通"
   INDEX 01 00:00:00
  TRACK02 AUDIO
   TITLE "春光好"
   INDEX 01 03:35:20
  TRACK03 AUDIO
   TITLE "一封情书"
   INDEX 01 05:53:20
  TRACK04 AUDIO
   TITLE "常拌你左右"
   INDEX 01 09:14:10
  TRACK05 AUDIO
   TITLE "请时常写信给我"
   INDEX 01 13:04:25
  TRACK06 AUDIO
   TITLE "彩虹舞曲"
   INDEX 01 16:16:27
  TRACK07 AUDIO
   TITLE "你该知道"
   INDEX 01 18:50:57
  TRACK08 AUDIO
   TITLE "请你别忘记"
   INDEX 01 22:25:30
  TRACK09 AUDIO
   TITLE "一首爱的歌"
   INDEX 01 25:27:22
  TRACK10 AUDIO
   TITLE "角拌山之恋"
   INDEX 01 28:00:07
  TRACK11 AUDIO
   TITLE "就是忘不了你"
   INDEX 01 30:13:47
  TRACK12 AUDIO
   TITLE "夕阳之恋"
   INDEX 01 33:02:60
  TRACK13 AUDIO
   TITLE "笑口常开"
   INDEX 01 36:02:27
  TRACK14 AUDIO
   TITLE "河畔情歌"
   INDEX 01 38:10:52
  TRACK15 AUDIO
   TITLE "爱的希望"
   INDEX 01 41:06:00
  TRACK16 AUDIO
   TITLE "相思小雨"
   INDEX 01 43:47:05
  TRACK17 AUDIO
   TITLE "你最美丽你最亲"
   INDEX 01 46:37:32
  TRACK18 AUDIO
   TITLE "梦儿难忘记"
   INDEX 01 50:28:65
  TRACK19 AUDIO
   TITLE "来电的男孩"
   INDEX 01 53:21:20
  TRACK20 AUDIO
   TITLE "谁能禁止我的爱"
   INDEX 01 56:35:15



下载地址:

付费资源

资源内容:******,付费资源

此资源,你需要购买以后才能查看

你需要注册本站登录本站后通过购买才能查看

本文地址:https://www.oenx.cn/post/20851.html
温馨提示:文章内容系作者个人观点,不代表极致HiFi对观点赞同或支持。
版权声明:本文为转载文章,来源于 hifi ,版权归原作者所有,欢迎分享本文,转载请保留出处!

发表评论 取消回复


表情

还没有留言,还不快点抢沙发?