开国大典.彩色4K修复版[mkv]

2020-08-08 18:11:11  阅读 366 次 评论 0 条
开国大典.彩色4K修复版[mkv]

开国大典.彩色4K修复版[mkv]

开国大典.彩色4K修复版[mkv]

开国大典.彩色4K修复版[mkv]

开国大典.彩色4K修复版[mkv]

开国大典.彩色4K修复版[mkv]


1949年10月1日,毛主席在北京天安门宣布中华人民共和国宣布成立,当时有来自世界各地的记者记录下了这一伟大的时刻。虽然我们通过电视已经无数次看过开国大典影像,但记忆中一直是都是黑白色,而去年俄罗斯为新中国成立70周年送来了一份大礼,那就是开国大典彩色视频,
     其实1949年的开国大典原来是有彩色影像的,当时中央政府还专门邀请了苏联莫斯科电影制片厂的摄影师来拍摄,遗憾的是一场意外火灾毁掉了这些珍贵资料。
唯一庆幸的是,最后被抢救出的残余胶片,正是毛泽东主席宣布中华人民共和国成立的片段。目前人们常见的黑白影像,则是由当时从延安请来的经历了战火考验的我国摄影师所记录下的。
       去年,中央档案馆公布了一段12分钟版开国大典彩色影像。这段影像是以俄罗斯联邦档案部门提供的开国大典彩色影片为基础剪辑制作的开国大典影像档案。据悉,这是目前公开的关于开国大典的时间最长、内容最完整的视频,真实还原了这一伟大的历史时刻。
       开国大典对于新中国有着非常重要的意义,在许多讲述中华人民共和国成立的影片中都会用到开国大典的历史画面,但此前开国大典的画面是黑白的,观众很少看到过这一时刻的彩色影像。据了解,新中国成立之初,苏联曾派出17人摄影团队,来到北京、上海、广州等地,使用彩色胶卷记录下当时的重要事件和珍贵的民俗风景画面。除了中央档案馆公布的这12分钟影像画面外,去年9月16至9月29日在俄罗斯24频道和1频道播出的系列纪录片《中国的重生》中也首次放出开国大典珍贵彩色画面。
     当时录制开国大典的事情不是没有想到,当年中央政府不仅让从延安带来摄影队进行全程录制开国大典,还请了苏联摄影师来用彩色镜头保留下这珍贵的历史场面。苏联人的拍摄贯穿全程,拍摄了几个小时大典的他们一直到结束,才回到了政府为他们安排的休息地——西华宾馆。他们抱着现场拍摄的几十盒胶片回到宾馆后,将胶片放置在了二楼一个靠近客厅的房间中。当时负责安保的北京纠察总队派了一个班的战士前来守卫宾馆,可是却发生了令人痛惜的一幕。到2日凌晨,宾馆突然发生火灾,火源就是那个离放胶片的房间很近的客厅。大火熊熊,很快引到了放置胶片的那房间。到苏联人发现时,一切已经晚了,只是从中抢救了一小段胶片。事后惊动了周恩来,他命公安部门从速调查原因。经查排除了敌特行为,最终确定是二楼客厅的一个烟头引发了整场大火。幸亏当时不止有苏联人拍摄,还有安排自己人拍。不然今天的我们将无法见到当年的开国大典,有点可惜的是自己人拍的影片是黑白的。不能比上苏联人的彩色摄影,庆幸的是苏联人抢救出来的是毛泽东高声宣布新中国成立之时的那段影像。
     作为庆祝中华人民共和国成立和中俄建交70周年的礼物,全俄国立电视广播公司将其制作成系列纪录片《中国的重生》,于去年9月16-29日在俄罗斯24频道和1频道播出。其中大部分有关新中国成立的苏联档案新闻纪录片此前从未向公众展示。
“该纪录片使用珍贵资料,以彩色影像为主,堪称非常轰动之事,许多镜头皆独一无二、质量上乘。”全俄国家广播电视公司历史频道总编辑、纪录片导演阿列克谢·杰尼索夫接受俄罗斯卫星通讯社采访时表示。
     这部开国大典影像档案以俄罗斯联邦档案部门提供的开国大典彩色影片为基础剪辑制作,是目前公开的关于开国大典的时间最长、内容最完整的视频,真实还原了这一伟大的历史时刻。

视频文件信息


General
Unique ID                 :204723657453245981147406741059350237671(0x9A04579BD1D0386880CF589BBCAF11E7)
Complete name             :F:\1\国庆阅兵\开国大典\开国大典.彩色修复版\开国大典.彩色修复版.mkv
Format                   :Matroska
Format version            : Version4
File size                 : 837MiB
Duration                 : 12 min 12s
Overall bit rate           : 9 582kb/s
Encoded date               : UTC2019-10-31 02:27:47
Writing application         : mkvmergev6.7.0 ('Back to the Ground') 64bit built onJan  8 201415:10:52
Writing library            : libebmlv1.3.0 + libmatroska v1.4.1
Video
ID                     :1
Format                   :AVC
Format/Info               : AdvancedVideo Codec
Format profile            :High@L4
Format settings            : CABAC / 4Ref Frames
Format settings, CABAC       :Yes
Format settings, Reference fra : 4 frames
Codec ID                 :V_MPEG4/ISO/AVC
Duration                 : 12 min 12s
Bit rate                 : 2 635kb/s
Width                   : 1 920pixels
Height                   : 1 080pixels
Display aspect ratio        :16:9
Frame rate mode            :Constant
Frame rate                : 24.000FPS
Color space               :YUV
Chroma subsampling          :4:2:0
Bit depth                 : 8bits
Scan type                 :Progressive
Bits/(Pixel*Frame)          :0.053
Stream size               : 230 MiB(27%)
Writing library            : x264 core157 r2935 545de2f
Encoding settings          : cabac=1 /ref=3 / deblock=1:0:0 / analyse=0x3:0x113 / me=hex / subme=7 /psy=1 / psy_rd=1.00:0.00 / mixed_ref=1 / me_range=16 / chroma_me=1/ trellis=1 / 8x8dct=1 / cqm=0 / deadzone=21,11 / fast_pskip=1 /chroma_qp_offset=-2 / threads=9 / lookahead_threads=1 /sliced_threads=0 / nr=0 / decimate=1 / interlaced=0 /bluray_compat=0 / constrained_intra=0 / bframes=3 / b_pyramid=2 /b_adapt=1 / b_bias=0 / direct=1 / weightb=1 / open_gop=0 /weightp=2 / keyint=243 / keyint_min=24 / scenecut=40 /intra_refresh=0 / rc_lookahead=40 / rc=crf / mbtree=1 / crf=23.0 /qcomp=0.60 / qpmin=0 / qpmax=69 / qpstep=4 / ip_ratio=1.40 /aq=1:1.00
Default                  :Yes
Forced                   :No
Audio #1
ID                     :2
Format                   :PCM
Format settings            : Little /Signed
Codec ID                 :A_PCM/INT/LIT
Duration                 : 12 min 12s
Bit rate mode             :Constant
Bit rate                 : 4 608kb/s
Channel(s)                : 6channels
Sampling rate             : 48.0kHz
Bit depth                 : 16bits
Stream size               : 402 MiB(48%)
Default                  :Yes
Forced                   :No
Audio #2
ID                     :3
Format                   :DTS
Format/Info               : DigitalTheater Systems
Codec ID                 :A_DTS
Duration                 : 12 min 12s
Bit rate mode             :Constant
Bit rate                 : 1 509kb/s
Channel(s)                : 6channels
Channel layout            : C L R Ls RsLFE
Sampling rate             : 48.0kHz
Frame rate                : 93.750 FPS(512 SPF)
Bit depth                 : 16bits
Compression mode           :Lossy
Stream size               : 132 MiB(16%)
Default                  :No
Forced                   :No
Audio #3
ID                     :4
Format                   :AC-3
Format/Info               : AudioCoding 3
Commercial name            : DolbyDigital
Codec ID                 :A_AC3
Duration                 : 12 min 12s
Bit rate mode             :Constant
Bit rate                 : 640kb/s
Channel(s)                : 2channels
Channel layout            : LR
Sampling rate             : 48.0kHz
Frame rate                : 31.250 FPS(1536 SPF)
Bit depth                 : 16bits
Compression mode           :Lossy
Stream size               : 55.9 MiB(7%)
Service kind               : CompleteMain
Default                  :No
Forced                   :No


下载地址:开国大典.彩色修复版[mkv].zip
本文地址:https://www.oenx.cn/post/18038.html
温馨提示:文章内容系作者个人观点,不代表极致HiFi对观点赞同或支持。
版权声明:本文为转载文章,来源于 hifi ,版权归原作者所有,欢迎分享本文,转载请保留出处!

发表评论取消回复


表情

还没有留言,还不快点抢沙发?